2012 full movie | Login with Facebook | Gravity Falls Stagione 1 DOWNLOAD ITA (2012)

Movies - Other

War for the Planet of the Apes (2017) HD-TS AC-3 _KOSHARA avi

  • Download 5x Faster
  • Download torrent
  • Direct Download
  • Rate this torrent +  |  -
War for the Planet of the Apes (2017) HD-TS AC-3 _KOSHARA avi

Anonymous and Free Direct Download 300GB+


Torrent info

Name:War for the Planet of the Apes (2017) HD-TS AC-3 _KOSHARA avi

Total Size: 1.37 GB

Magnet: Magnet Link

Seeds: 1346

Leechers: 534

Stream: Watch Online @ Movie4u

Last Updated: 2017-07-20 14:16:37 (Update Now)

Torrent added: 2017-07-15 11:40:09



VPN For Torrents

Torrent Files List


War for the Planet of the Apes (2017) HD-TS AC-3 _KOSHARA.avi (Size: 1.37 GB) (Files: 1)

 War for the Planet of the Apes (2017) HD-TS AC-3 _KOSHARA.avi

1.37 GB
 

tracker

leech seeds
 

Torrent description

screens:

http://imgmak.com/zN3

http://imgmak.com/zN3

http://imgmak.com/zNy

http://imgmak.com/zN9


War for the Planet of the Apes (2017) HD-TS AC-3

Format : AVI
Format/Info : Audio Video Interleave
File size : 1.37 GiB
Duration : 2h 5mn
Overall bit rate : 1 553 Kbps
Writing application : VirtualDubMod 1.5.10.2 (build 2540/release)
Writing library : VirtualDubMod build 2540/release

Video
ID : 0
Format : MPEG-4 Visual
Format profile : Advanced [emailprotected]/* */
Language:russian
Format settings, BVOP : 2
Format settings, QPel : No
Format settings, GMC : No warppoints
Format settings, Matrix : Default (MPEG)
Codec ID : XVID
Codec ID/Hint : XviD
Duration : 2h 5mn
Bit rate : 1 352 Kbps
Width : 720 pixels
Height : 288 pixels
Display aspect ratio : 2.500
Frame rate : 23.976 fps
Color space : YUV
Chroma subsampling : 4:2:0
Bit depth : 8 bits
Scan type : Progressive
Compression mode : Lossy
Bits/(Pixel*Frame) : 0.272
Stream size : 1.19 GiB (87%)
Writing library : XviD 1.2.1 (UTC 2008-12-04)

Audio
ID : 1
Format : AC-3
Format/Info : Audio Coding 3
Mode extension : CM (complete main)
Codec ID : 2000
Duration : 2h 5mn
Bit rate mode : Constant
Bit rate : 192 Kbps
Channel(s) : 2 channels
Channel positions : Front: L R
Sampling rate : 48.0 KHz
Bit depth : 16 bits
Compression mode : Lossy
Stream size : 173 MiB (12%)
Alignment : Split accross interleaves
Interleave, duration : 42 ms (1.00 video frame)
Interleave, preload duration : 500 ms

related torrents

Torrent name

health leech seeds Size
 


comments (0)

Main Menu